Skip to main content

Camper Van Beethoven Live at Irving Plaza on 2006-10-05


Topics Live Concert


01 New Roman Times
02 All Her Favorite Fruit
03 Sweethearts
04 Tania
05 Eye of Fatima (Part One)
06 Eye of Fatima (Part Two)
07 Prelude
08 Sons of the New Golden West
09 51-7
10 O Death
11 L'Aguardiente
12 Take the Skinheads Bowling
13 She Divines Water
14 Mao Reminisces About His Days In Southern China
15 That Gum You Like Is Back in Style
16 Payed Vacation: Greece
17 Processional - Club Med Sucks
18 Interstellar Overdrive


Collection CamperVanBeethoven
Band/Artist Camper Van Beethoven
Venue Irving Plaza
Location New York, NY

Source Neumann KM-150's (AK-50 Hypercardioid Capsules) > Apogee Minime > digital coaxial > M-Audio Microtrack > 24bit 48kHz wav files
Lineage M-Audio Microtrack > 24bit 48kHz wav files > Soundforge (set fades, resampling to 16/44.1) > CD Wave 1.95 (tracking) > Flac Frontend (level 7, align sector boundaries) > flac
Taped by danlynch
Transferred by danlynch

Notes

Camper Van Beethoven
2006-10-05
Irving Plaza
New York, NY USA

Digital Master Recording recorded from Front of Board, Dead Center

Source: Neumann KM-150's (AK-50 Hypercardioid Capsules) > Apogee Minime > digital coaxial > M-Audio Microtrack > 24bit 48kHz wav files

Transfer: M-Audio Microtrack > 24bit 48kHz wav files > Soundforge (set fades, resampling to 16/44.1) > CD Wave 1.95 (tracking) > Flac Frontend (level 7, align sector boundaries) > flac

Taper: Recorded and Produced by danlynch 2006-10-07

Notes:
There's a bit of saturation in this recording which is attibutable to the PA mix being far too bass heavy. I had the perfect position, and with this equipment, this recording should be as clean as a whistle. During quieter moments, this recording shines.
This is the 16bit/44.1 version for burning. The 24/48 master is available on request.

Setlist:
01 New Roman Times
02 All Her Favorite Fruit
03 Sweethearts
04 Tania
05 Eyes of Fatima (Part One)
06 Eyes of Fatima (Part Two)
07 Prelude
08 Sons of the New Golden West
09 51-7
10 O Death
11 L'Aguardiente
12 Take the Skinheads Bowling
13 She Divines Water
14 Mao Reminisces About His Days In Southern China
15 That Gum You Like Is Back in Style
16 Payed Vacation: Greece
17 Processional - Club Med Sucks
18 Interstellar Overdrive

length expanded size cdr WAVE problems filename
5:19.43 56372780 --- -- ---xx CVB2006-10-05t01.flac
5:16.53 55867100 --- -- ---xx CVB2006-10-05t02.flac
4:44.15 50132924 --- -- ---xx CVB2006-10-05t03.flac
4:02.43 42789980 --- -- ---xx CVB2006-10-05t04.flac
3:07.11 33012716 --- -- ---xx CVB2006-10-05t05.flac
2:17.42 24265628 --- -- ---xx CVB2006-10-05t06.flac
0:54.19 9570332 --- -- ---xx CVB2006-10-05t07.flac
2:46.48 29395340 --- -- ---xx CVB2006-10-05t08.flac
5:03.71 53616236 --- -- ---xx CVB2006-10-05t09.flac
3:14.62 34367468 --- -- ---xx CVB2006-10-05t10.flac
6:07.73 64910540 --- -- ---xx CVB2006-10-05t11.flac
2:54.14 30726572 --- -- ---xx CVB2006-10-05t12.flac
4:02.10 42712364 --- -- ---xx CVB2006-10-05t13.flac
2:09.23 22809740 --- -- ---xx CVB2006-10-05t14.flac
5:09.22 54559388 --- -- ---xx CVB2006-10-05t15.flac
1:58.07 20831708 --- -- ---xx CVB2006-10-05t16.flac
7:22.40 78062924 --- -- ---xx CVB2006-10-05t17.flac
10:40.36 112980716 --- -- ---xx CVB2006-10-05t18.flac
77:11.32 816984456 B (totals for 18 files, 0.6202 overall compression ratio)

Reviews

There are no reviews yet. Be the first one to write a review.
DOWNLOAD OPTIONS
Uploaded by
morst
on 11/6/2006
Views
3,885
Favorites
2
PEOPLE ALSO FOUND
Camper Van Beethoven
by Camper Van Beethoven
9,949
0
1
( 1 reviews )
Source: Sony ECM-717 > Sharp MD-MT190MD
Camper Van Beethoven
by Camper Van Beethoven
2,679
0
1
( 1 reviews )
Source: Sony ECM-717 > Sharp Minidisc MD-MT190
Camper Van Beethoven
by Camper Van Beethoven
154
0
0
Source: soundboard > Sony D5 > TDK MA90 cassette master tape
Camper Van Beethoven
by Camper Van Beethoven
412
0
0
Camper Van Beethoven
by Camper Van Beethoven
1,883
2
0
Source: B&K 4011-> Lunatec V2-> Benchmark AD2K+ FOB
Camper Van Beethoven
by Camper Van Beethoven
1,559
1
0
Source: DPA 4061 > Sony PCM-D50 > WAV @48/24
Camper Van Beethoven
by Camper Van Beethoven
1,727
1
1
( 1 reviews )
Source: Nakamichi CM-301 (ortf on stage with Leegeddy "active" mod) > pmod UA5> JB3
Camper Van Beethoven
by Camper Van Beethoven
13,255
1
2
( 2 reviews )
Source: Sony ECM-717 > Sharp Minidisc MD-MT19
Camper Van Beethoven
by Camper Van Beethoven
1,009
1
0
Source: SBD > ? > CD
Camper Van Beethoven
by Camper Van Beethoven
1,717
2
2
( 2 reviews )
Source: KM 140's > MV100 > SBM-1 (Oade mod) > D100